PDA

View Full Version : Mr Singh & Mrs Mehta | 2010



MaDDY
06-10-2010, 01:12 AM
Mr Singh & Mrs Mehta | 2010 | 1CD DVDRip


Aruna Shields Hot Movie

http://sphotos.ak.fbcdn.net/hphotos-ak-snc1/hs249.snc1/9620_135555929308_135494369308_2329344_3406319_n.j pg

Caps:
http://img256.imagevenue.com/loc473/th_10859_MrSinghMrsMehta2008_PDVDRipByCBA_GURU.avi _thumbs_2010.04.30_12.58.44_123_473lo.jpg (http://img256.imagevenue.com/img.php?image=10859_MrSinghMrsMehta2008_PDVDRipByC BA_GURU.avi_thumbs_2010.04.30_12.58.44_123_473lo.j pg)

Starring: Prroshant Narayannan, Aruna Shields, Naved Aslam, Lucy Hassan

Crew:
Producer: Manu Kumaran
Director: Pravesh Bhardwaj
Screenplay: Pravesh Bhardwaj
Editor: Pranav Dhiwir
Music: Ustaad Shujaat Hussain Khan
Executive Producer: Mukund Venkataraman
Director of Photography: Mahendra Pradhan
Art Director: Naren Rahurikar
Line Producer: Shilpa Sharma
Visual Effects Studios: Prime Focus, London

General Info:

Complete name : Mehta (2008) - PDVD Rip By CBA_GURU.avi
Format : AVI
Format/Info : Audio Video Interleave
File size : 700 MiB
Duration : 1h 58mn
Overall bit rate : 823 Kbps
Writing application : VirtualDubMod 1.5.10.2 (build 2540/release)
Writing library : VirtualDubMod build 2540/release

Video
ID : 0
Format : MPEG-4 Visual
Format profile : Advanced Simple@L5
Format settings, BVOP : Yes
Format settings, QPel : No
Format settings, GMC : No warppoints
Format settings, Matrix : Default (H.263)
Muxing mode : Packed bitstream
Codec ID : XVID
Codec ID/Hint : XviD
Duration : 1h 58mn
Bit rate : 674 Kbps
Width : 688 pixels
Height : 336 pixels
Display aspect ratio : 1.861
Frame rate : 23.976 fps
Resolution : 8 bits
Colorimetry : 4:2:0
Scan type : Progressive
Bits/(Pixel*Frame) : 0.122
Stream size : 573 MiB (82%)
Writing library : XviD 1.2.1 (UTC 2008-12-04)

Audio
ID : 1
Format : MPEG Audio
Format version : Version 1
Format profile : Layer 3
Format_Settings_Mode : Joint stereo
Format_Settings_ModeExtension : MS Stereo
Codec ID : 55
Codec ID/Hint : MP3
Duration : 1h 58mn
Bit rate mode : Variable
Bit rate : 136 Kbps
Minimum bit rate : 32.0 Kbps
Channel(s) : 2 channels
Sampling rate : 48.0 KHz
Stream size : 116 MiB (17%)
Alignment : Aligned on interleaves
Interleave, duration : 24 ms (0.58 video frame)
Interleave, preload duration : 205 ms
Writing library : LAME3.98
Encoding settings : -m j -V 5 -q 0 -lowpass 16.5 --vbr-new -b 32



Movie Summary:
Karan (Naved Aslam) and Neera (Aruna Shields) are happily married, living in London. At least that's what Neera thinks, until she discovers that Karan is having an affair.

Ashwin (Prashant Narayanan) is a painter, hoping to strike big someday. Sakhi (Lucy Hassan), his wife, is a high flying executive. Ashwin is unaware of Sakhi's affair with Karan until Neera knocks on his door.

In a perfect world they would have never met.

Mr. Singh / Mrs. Mehta is a story of Neera and Ashwin caught in the turmoil of an extramarital affair.

It is a journey that defies the moral fabric of Indian middle class values... it's a journey where the lines between right and wrong blur. A journey that has no boundaries... no definitions...


http://rapidshare.com/files/381667211/Mr_Singh___Mrs_Mehta__2008__-_PDVD_Rip_By_CBA_GURU.part1.rar
http://rapidshare.com/files/384521437/Mr_Singh___Mrs_Mehta__2008__-_PDVD_Rip_By_CBA_GURU.part2.rar
http://rapidshare.com/files/381667801/Mr_Singh___Mrs_Mehta__2008__-_PDVD_Rip_By_CBA_GURU.part3.rar
http://rapidshare.com/files/381789605/Mr_Singh___Mrs_Mehta__2008__-_PDVD_Rip_By_CBA_GURU.part4.rar
http://rapidshare.com/files/381789693/Mr_Singh___Mrs_Mehta__2008__-_PDVD_Rip_By_CBA_GURU.part5.rar
http://rapidshare.com/files/381790915/Mr_Singh___Mrs_Mehta__2008__-_PDVD_Rip_By_CBA_GURU.part6.rar
http://rapidshare.com/files/381790933/Mr_Singh___Mrs_Mehta__2008__-_PDVD_Rip_By_CBA_GURU.part7.rar

jayceetee3
06-10-2010, 02:35 AM
http://content.imagesocket.com/images/4GD4ab.gif (http://imagesocket.com/view/4GD4ab.gif)